#TITLE:Bokusatsu Tenshi Dokuro-chan;
#SUBTITLE:- Opening Theme;
#ARTIST:Saeko Chiba;
#TITLETRANSLIT:;
#SUBTITLETRANSLIT:;
#ARTISTTRANSLIT:;
#CREDIT:Kreton;
#BANNER:Bokusatsu Tenshi Dokuro-chan.png;
#BACKGROUND:Bokusatsu Tenshi Dokuro-chan-bg.png;
#LYRICSPATH:Bokusatsu Tenshi Dokuro-chan.lrc;
#CDTITLE:CDTitle.png;
#MUSIC:Bokusatsu Tenshi Dokuro-chan.ogg;
#OFFSET:-0.076;
#SAMPLESTART:39.218;
#SAMPLELENGTH:11.400;
#SELECTABLE:YES;
#BPMS:0.000=171.280;
#STOPS:;
#BGCHANGES:0.000=Bokusatsu Tenshi Dokuro-chan.avi=1.000=0=0=0,
253.000=Bokusatsu Tenshi Dokuro-chan-bg.png=1.000=1=0=1,
99999=-nosongbg-=1.000=0=0=0 // don't automatically add -songbackground-
;
// cache tags:
#FIRSTBEAT:0.000;
#LASTBEAT:252.000;
#SONGFILENAME:songs/Otaku's Dream 3rd Anime Mix/[Kreton] Bokusatsu Tenshi Dokuro-chan OP/Bokusatsu Tenshi Dokuro-chan.sm;
#HASMUSIC:1;
#HASBANNER:1;
#MUSICLENGTH:89.103;
// end cache tags

//---------------dance-single - Kreton----------------
#NOTES:
     dance-single:
     Kreton:
     Hard:
     7:
     0.571,0.530,0.314,0.337,0.000,298.000,28.000,30.000,0.000,0.000:
0010
0100
0000
0000
0000
0000
0100
0010
,
0000
0000
0000
0000
,
0010
0100
0010
1000
0001
1000
0000
0100
,
0000
0100
0000
0100
0010
0000
1000
0000
,
0000
1000
0100
1000
0100
1000
0100
1000
,
0100
1000
0100
2000
0000
0000
0000
0000
,
3000
0001
0010
0001
0010
0001
0010
0001
,
0010
0001
0010
0002
0000
0000
0000
0003
,
1000
0000
0001
0000
1000
0000
0001
0100
,
0001
0100
0001
0000
0010
0000
0100
0000
,
0010
1000
0010
1000
0010
1000
0010
0200
,
0000
0000
0000
0300
,
0000
0100
0010
0100
0010
0100
0010
0100
,
0010
0100
0010
0200
0000
0000
0000
0300
,
0000
0010
0100
0010
0100
0010
0100
0010
,
0100
0010
0100
0020
0000
0000
0000
0030
,
0100
0000
0100
0000
0010
0000
0010
1000
,
0100
0000
0010
0100
0001
0000
1000
0000
,
0001
0100
0010
0100
1000
0010
1000
0010
,
2002
0000
0000
0000
0000
3003
0000
0000
,
0220
0000
0000
0000
0000
0330
1000
0000
,
0001
1000
0001
0100
,
1000
0000
1000
0002
0000
0000
0003
0000
,
0100
0001
0100
0001
0000
0000
0000
0000
,
1000
0001
1000
0010
0100
0010
0100
1000
,
1000
1000
0001
0001
0000
0000
0000
0000
,
0100
0010
0100
0010
,
1000
0100
0000
0100
0000
0000
2002
3003
,
1000
1100
0011
1010
,
0100
0001
0000
0220
0000
0000
0330
0000
,
1000
0001
1000
0001
1000
0100
0010
0100
,
0010
0100
0010
0100
0000
0000
0000
0000
,
1010
0101
0011
1100
,
1000
0001
0000
2002
0000
0000
3003
0000
,
0001
1000
0001
1000
0001
0010
0100
0010
,
0100
0010
0100
0010
0000
0000
0000
0000
,
1000
0100
1000
0010
1000
0100
1000
0010
,
1000
0100
0000
2000
0000
0000
3000
0000
,
0001
0010
0001
0100
0001
0010
0001
0100
,
0001
0010
0000
0020
0000
0000
0030
0000
,
0001
0010
1000
0000
0010
0001
0000
0110
,
0000
1000
0010
0001
0010
0100
1000
0022
,
0000
0000
0033
0000
,
0110
1001
0000
0110
0000
0000
0000
0000
,
0011
1100
0011
1010
,
0100
0010
0000
2002
0000
0000
3003
0000
,
0001
0010
0001
0100
0001
0010
0001
0100
,
0001
0010
0001
0200
0000
0000
0300
0000
,
1001
0110
1001
0110
,
0001
1000
0000
0220
0000
0000
0330
0000
,
1000
0100
1000
0010
1000
0100
1000
0010
,
1000
0100
1000
0020
0000
0000
0030
0000
,
0100
0000
0010
0100
0010
0000
0001
0010
,
1000
0000
0000
0200
0000
0000
0300
0000
,
0001
0000
0001
1000
0010
0000
1000
0010
,
0100
0001
0000
0010
0000
0000
0000
0000
,
1000
0000
0001
0010
0001
1000
0100
1000
,
0000
0001
0010
0100
1000
0010
0001
1000
,
0000
1000
0001
0100
,
0010
1000
0000
0010
0000
0000
0000
0000
,
1000
0100
1000
0100
1000
0100
0000
0000
,
0000
0001
0010
0001
0010
0001
0010
0001
,
0010
0001
0010
0002
0000
0003
0220
0000
,
0330
0000
0000
0000
;

//---------------dance-single - Kreton----------------
#NOTES:
     dance-single:
     Kreton:
     Medium:
     5:
     0.465,0.530,0.415,0.314,0.000,225.000,37.000,28.000,0.000,0.000:
0001
1000
0000
0000
0000
0000
1000
0001
,
0000
0000
0000
0000
,
0001
0001
0001
1000
1000
1000
0000
0100
,
0000
0010
0000
0100
0000
0000
1000
0000
,
0000
0000
1000
1000
0000
0000
0001
0001
,
0000
0000
1000
2000
0000
0000
0000
0000
,
3000
0000
0001
0001
0000
0000
1000
1000
,
0000
0000
0001
0002
0000
0000
0000
0003
,
1000
0100
1000
0100
,
1000
0001
0010
0001
,
0010
1000
0000
0000
0010
1000
0000
0200
,
0000
0000
0000
0300
,
0000
0100
0100
0000
0010
0010
0000
0100
,
0100
0000
0010
0020
0000
0000
0000
0030
,
0000
0010
0010
0000
0100
0100
0000
0010
,
0010
0000
0100
0200
0000
0000
0000
0300
,
0100
0000
0100
0000
0010
0000
0010
1000
,
0000
0000
0010
0100
0000
0000
1000
0000
,
0001
0000
0010
0100
1000
0000
1000
0010
,
2000
0000
0000
0000
0000
3000
0000
0000
,
0002
0000
0003
0100
,
0010
0100
0010
1000
,
0001
1000
0000
0000
,
1000
0001
1000
0001
0000
0000
0000
0000
,
1000
0100
1000
0000
0100
0000
0100
1000
,
0000
1000
0001
0000
0000
0000
0000
0000
,
1001
0110
1001
0110
,
1000
0100
0000
0001
0000
0000
2002
3003
,
0000
1001
0110
1001
,
0110
0000
0000
2002
0000
0000
3003
0000
,
1000
1001
1000
0010
,
0110
0010
0000
0000
,
0110
1001
0110
1001
,
0110
0000
0000
2002
0000
0000
3003
0000
,
0001
1001
0001
0100
,
0110
0100
0000
0000
,
1000
0010
1000
0000
1000
0010
1000
0000
,
1000
0010
0000
2000
0000
0000
3000
0000
,
0001
0100
0001
0000
0001
0100
0001
0000
,
0001
0100
0000
0020
0000
0000
0030
0000
,
0001
0010
1000
0000
0010
0001
0000
0000
,
0000
1000
0010
0000
0010
0100
0000
0022
,
0000
0000
0033
0000
,
0110
1001
0000
0220
0000
0330
0000
0000
,
0110
1001
0110
1001
,
0110
0000
0000
2002
0000
0000
3003
0000
,
0001
0100
0001
0000
0001
0100
0001
0000
,
0001
0100
0001
0200
0000
0000
0300
0000
,
1001
0110
1001
0110
,
1001
0000
0000
0220
0000
0000
0330
0000
,
1000
0010
1000
0000
1000
0010
1000
0000
,
1000
0010
1000
0020
0000
0000
0030
0000
,
0100
0000
0010
0000
0010
0000
0001
0010
,
0000
1000
0000
0100
0000
0000
0000
0000
,
0001
0001
0010
1000
,
0100
0000
0000
0010
0000
0000
0000
0000
,
1000
0000
0001
0000
0001
1000
0000
1000
,
0000
0001
0000
0100
0000
0010
0000
1000
,
0000
1000
0001
0100
,
0010
1000
0000
0010
0000
0000
0000
0000
,
1000
0001
1000
0001
1000
0001
0000
0000
,
0000
0001
0001
0000
0000
0001
0001
0000
,
0000
0000
0001
0002
0000
0003
0220
0000
,
0330
0000
0000
0000
;

//---------------dance-single - Kreton----------------
#NOTES:
     dance-single:
     Kreton:
     Easy:
     3:
     0.330,0.318,0.011,0.202,0.000,187.000,1.000,18.000,0.000,0.000:
0010
0000
0000
0100
,
0000
0000
0000
0000
,
0100
0100
0100
0010
,
0010
0010
0010
1000
,
0000
1000
1000
1000
,
1000
0000
1000
2000
0000
0000
0000
0000
,
3000
0001
0001
0001
,
0001
0000
0001
0002
0000
0000
0000
0003
,
1000
0001
1000
0001
,
1000
0001
0010
0100
,
0010
0000
0100
0000
0010
0000
0100
0200
,
0000
0000
0000
0300
,
0000
1000
0100
1000
,
0001
0000
0010
0000
0002
0000
0000
0003
,
0000
0001
0010
0001
,
1000
0000
0100
0000
2000
0000
0000
3000
,
0100
0100
0010
0010
,
0100
0010
0001
0100
,
0010
0100
1000
1000
,
2000
0000
0000
0000
0000
3000
0000
0000
,
0002
0000
0003
1000
,
0001
1000
0001
0100
,
1000
1000
1000
0000
,
0100
0100
0000
0000
,
0001
1000
0010
0100
,
1000
0100
0000
0000
,
0100
0010
0100
0010
,
1000
0000
0000
0100
0000
0000
1000
0000
,
0000
0100
0001
1000
,
0010
0000
0000
0002
0000
0000
0003
0000
,
1000
1000
1000
0010
,
0010
0010
0000
0000
,
0010
1000
0001
0100
,
0001
0000
0000
2000
0000
0000
3000
0000
,
0001
0001
0001
0100
,
0100
0100
0000
0000
,
1000
1000
1000
1000
,
1000
0000
0000
2000
0000
0000
3000
0000
,
0001
0001
0001
0001
,
0001
0000
0000
0002
0000
0000
0003
0000
,
0001
0000
1000
0000
0010
0000
0000
0001
,
0000
0000
0010
0000
0010
0000
0000
0200
,
0000
0000
0300
0000
,
0100
0000
0000
0010
0000
0000
0000
0000
,
0001
1000
0001
1000
,
0001
0000
0000
0002
0000
0000
0003
0000
,
0001
0001
0001
0001
,
0001
0000
0001
0002
0000
0000
0000
0003
,
0010
0100
0010
0100
,
0010
0000
0000
2000
0000
0000
3000
0000
,
1000
1000
1000
1000
,
1000
0000
1000
2000
0000
0000
0000
3000
,
0100
0010
0010
0001
,
1000
0000
0000
0100
0000
0000
0000
0000
,
0001
0001
0010
1000
,
0100
0000
0000
0010
0000
0000
0000
0000
,
1000
0001
0001
0100
,
0000
0010
1000
0001
,
0000
1000
0001
0100
,
0010
0000
0000
0010
0000
0000
0000
0000
,
1000
1000
1000
0000
,
0000
0001
0001
0001
,
0001
0001
0000
2002
,
3003
0000
0000
0000
;

//---------------dance-single - Kreton----------------
#NOTES:
     dance-single:
     Kreton:
     Beginner:
     1:
     0.085,0.212,0.157,0.000,0.000,39.000,14.000,0.000,0.000,0.000:
1000
0000
0000
0001
,
0000
0000
0000
0000
,
1000
0000
0000
0000
,
0000
0000
0000
0000
,
0000
1000
0000
0000
0000
0000
0000
0000
,
0000
0000
0000
0000
,
0000
0001
0000
0000
0000
0000
0000
0000
,
0000
0000
0000
0000
,
1000
0000
0000
0000
,
0000
0000
0000
0000
,
0010
0000
0000
0000
,
0000
0000
0000
0000
,
0000
1000
0000
0000
0000
0000
0000
0000
,
0000
0000
0000
0000
,
0000
0001
0000
0000
0000
0000
0000
0000
,
0000
0000
0000
0000
,
0100
0000
0000
0000
,
0000
0000
0000
0000
,
0010
0000
0000
0000
,
0000
0000
0000
0000
,
0001
0000
0000
0000
,
0000
0000
1000
0000
,
0000
0000
0000
0000
,
0110
0000
0000
0000
,
1000
0000
0000
0000
,
0000
0000
0000
0000
,
0010
0000
0000
0000
,
0000
0000
0000
0000
,
1001
0000
0000
0000
,
0000
0000
0000
0000
,
1001
0000
0000
0000
,
0000
0000
0000
1001
0000
0000
0000
0000
,
1001
0000
0000
0000
,
0000
0000
0000
0000
,
1001
0000
0000
0000
,
0000
0000
0000
1001
0000
0000
0000
0000
,
1000
0000
0000
0000
,
0000
0000
0000
0000
,
0001
0000
0000
0000
,
0000
0000
0000
0000
,
0100
0000
0000
0000
,
0000
0000
0000
0001
,
0000
0000
0000
0000
,
1000
0000
0000
0000
,
1001
0000
0000
0000
,
0000
0000
0000
0000
,
1001
0000
0000
0000
,
0000
0000
0000
1001
0000
0000
0000
0000
,
1001
0000
0000
0000
,
0000
0000
0000
0000
,
1001
0000
0000
0000
,
0000
0000
0000
1001
0000
0000
0000
0000
,
0001
0000
0000
0000
,
0000
0000
0000
0000
,
1000
0000
0000
0000
,
0000
0000
0000
0000
,
0100
0000
0000
0000
,
0000
0000
0000
0010
,
0000
0000
0000
0000
,
0000
0000
0000
0000
,
0000
0000
0000
0000
,
0000
1000
0000
0000
0000
0000
0000
0000
,
0000
0000
0000
0000
,
1001
0000
0000
0000
;
